Solo Audio Latino Ip Man 3 (2015) DTS 5.1 ch y AC3 5.1 ch

ipman3

Solo Audio Latino DTS 5.1 ch (1.1GB)

Audio
Format                      : DTS
Format/Info                 : Digital Theater Systems
Mode                        : 16
Format settings, Endianness : Big
Duration                    : 1h 44mn
Bit rate mode               : Constant
Bit rate                    : 1 509 Kbps
Channel(s)                  : 6 channels
Channel positions           : Front: L C R, Side: L R, LFE
Sampling rate               : 48.0 KHz
Bit depth                   : 16 bits
Compression mode            : Lossy
Stream size                 : 1.10 GiB (100%)

 

MEGA, 1FICHIER, SOLIDFILES, UPLOADED, USERSCLOUD, 4SHARED, OPENLOAD, UPTOBOX
Parte 1: http://linkshrink.net/7A3JUC
Parte 2: http://linkshrink.net/7QULbQ

 

Solo Audio Latino AC3 5.1 ch (479MB)

Audio
Format                      : AC-3
Format/Info                 : Audio Coding 3
Mode extension              : CM (complete main)
Format settings, Endianness : Big
Duration                    : 1h 44mn
Bit rate mode               : Constant
Bit rate                    : 640 Kbps
Channel(s)                  : 6 channels
Channel positions           : Front: L C R, Side: L R, LFE
Sampling rate               : 48.0 KHz
Compression mode            : Lossy
Stream size                 : 479 MiB (100%)

 

MEGA, 1FICHIER, SOLIDFILES, UPLOADED, USERSCLOUD, 4SHARED, OPENLOAD, UPTOBOX
http://linkshrink.net/7hn3im

 

DELAY para mis versiones y cualquier audio que escojan

2000

 

NOTA: Antes de entrar a ver los enlaces por favor desactiven adblock u otra extension de su navegador para evitar tener problemas y poder ver los links.

 

CONTRASEÑA PARA EL RAR: movieshdgratis

 

Necesito de su apoyo desactivando ADBLOCK por favor.

 

1 LINK por MEGA sin rar
(solo donadores a su correo)

 

Links propios e intercambiables.Enjoy

 

Si descargan alguna parte dañada o que les de error la contraseña o les diga que esta corrupta solo reparenla con winrar, todas las peliculas se suben bien sin partes dañadas.

 

Los archivos rar tienen el 5% de recuperacion para reparar archivos dañados.

 

El que descargue y descomprima por favor de avisar en los comentarios.

1 Comentario


  1. puntito dice:

    excelente aporte ^^ como dice el mismo aporte, sincronizar a 2000mm y todo anda perfecto, gracias!! ^^

Recuerda:
-NO Ofender usuarios.
-NO Spam.
-NO Malas palabras.

Deja tú comentario